<?xml version="1.0" standalone="no"?>
<!DOCTYPE svg PUBLIC "-//W3C//DTD SVG 1.1//EN" "http://www.w3.org/Graphics/SVG/1.1/DTD/svg11.dtd">
<svg xmlns="http://www.w3.org/2000/svg">
<defs >
<font id="SpaceMono" horiz-adv-x="612" ><font-face
    font-family="Space Mono"
    units-per-em="1000"
    panose-1="2 0 5 9 4 0 0 2 0 4"
    ascent="1120"
    descent="-361"
    alphabetic="0" />
<glyph unicode=" " glyph-name="space" />
<glyph unicode="!" glyph-name="exclam" d="M236 56Q236 85 256 105T306 126Q335 126 355 106T376 56Q376 27 356 7T306 -14Q277 -14 257 6T236 56ZM346 700V186H266V700H346Z" />
<glyph unicode="&quot;" glyph-name="quotedbl" d="M327 644Q327 673 347 693T397 714Q426 714 446 694T467 644Q467 622 455 605T424 579V468H370V579Q351 587 339 604T327 644ZM145 644Q145 673 165 693T215 714Q244 714 264 694T285 644Q285 622 273 605T242
579V468H188V579Q169 587 157 604T145 644Z" />
<glyph unicode="#" glyph-name="numbersign" d="M360 102V224H252V102H180V224H70V296H180V404H70V476H180V598H252V476H360V598H432V476H542V404H432V296H542V224H432V102H360ZM360 404H252V296H360V404Z" />
<glyph unicode="$" glyph-name="dollar" d="M334 608Q369 602 397 588T446 552T477 506T488 452V434H412V446Q412 479 391 502T334 534V391Q417 381 460 346T504 248V242Q504 175 458 135T334 89V28H262V91Q218 98 187 115T135 157T104 210T94 268V292H170V280Q170
232 194 203T262 164V327Q187 337 148 370T108 464V470Q108 502 120 526T154 568T203 596T262 610V672H334V608ZM426 242Q426 277 404 294T334 319V161Q377 166 401 187T426 242ZM186 470Q186 442 202 425T262 399V538Q230 533 208 516T186 470Z" />
<glyph unicode="%" glyph-name="percent" d="M346 556Q346 520 334 493T302 446T255 416T199 406Q170 406 144 416T97 445T64 492T52 556Q52 592 64 619T96 666T143 696T199 706Q228 706 254 696T301 667T334 620T346 556ZM199 460Q238 460 262 486T286 556Q286
599 262 625T199 652Q160 652 136 626T112 556Q112 508 136 484T199 460ZM561 144Q561 108 549 81T517 34T470 4T414 -6Q385 -6 359 4T312 33T279 80T267 144Q267 180 279 207T311 254T358 284T414 294Q443 294 469 284T516 255T549 208T561 144ZM414 48Q453 48
477 74T501 144Q501 187 477 213T414 240Q375 240 351 214T327 144Q327 96 351 72T414 48ZM531 494L555 448L82 207L58 253L531 494Z" />
<glyph unicode="&amp;" glyph-name="ampersand" d="M580 312H483V0H259Q209 0 170 14T105 52T66 110T52 183V195Q52 252 86 291T170 345V357Q120 370 86 409T52 506V518Q52 557 65 590T105 648T170 686T259 700H387V622H265Q206 622 169 593T132 512V506Q132 452
167 421T262 390H399V496H483V390H580V312ZM399 78V312H262Q202 312 167 281T132 195V189Q132 137 169 108T265 78H399Z" />
<glyph unicode="&apos;" glyph-name="quotesingle" d="M236 644Q236 673 256 693T306 714Q335 714 355 694T376 644Q376 622 364 605T333 579V468H279V579Q260 587 248 604T236 644Z" />
<glyph unicode="(" glyph-name="parenleft" d="M546 -82V-156H510Q440 -156 376 -130T263 -55T185 65T156 224V476Q156 564 185 634T263 754T376 830T510 856H546V782H510Q456 782 406 761T318 699T257 602T234 472V228Q234 156 257 99T318 1T406 -60T510 -82H546Z" />
<glyph unicode=")" glyph-name="parenright" d="M102 -82Q156 -82 206 -61T294 1T355 98T378 228V472Q378 544 355 601T294 699T206 760T102 782H66V856H102Q172 856 236 830T349 755T427 635T456 476V224Q456 135 427 65T349 -54T236 -130T102 -156H66V-82H102Z" />
<glyph unicode="*" glyph-name="asterisk" d="M507 500L419 412L369 384L374 372L419 386H554V314H419L374 328L369 316L419 288L507 200L456 149L368 237L340 287L328 282L342 237V102H270V237L284 282L272 287L244 237L156 149L105 200L193 288L243 316L238
328L193 314H58V386H193L238 372L243 384L193 412L105 500L156 551L244 463L272 413L284 418L270 463V598H342V463L328 418L340 413L368 463L456 551L507 500Z" />
<glyph unicode="+" glyph-name="plus" d="M97 386H270V559H342V386H515V314H342V141H270V314H97V386Z" />
<glyph unicode="," glyph-name="comma" d="M236 56Q236 85 256 105T306 126Q335 126 355 106T376 56V-42Q376 -76 355 -98T299 -120H248V-66H295Q322 -66 322 -36V-11Q314 -14 305 -14Q277 -14 257 6T236 56Z" />
<glyph unicode="-" glyph-name="hyphen" d="M156 296H456V224H156V296Z" />
<glyph unicode="." glyph-name="period" d="M236 56Q236 85 256 105T306 126Q335 126 355 106T376 56Q376 27 356 7T306 -14Q277 -14 257 6T236 56Z" />
<glyph unicode="/" glyph-name="slash" d="M417 806L487 784L196 -106L125 -84L417 806Z" />
<glyph unicode="0" glyph-name="zero" d="M60 428Q60 564 125 639T306 714Q422 714 487 639T552 428V272Q552 132 487 59T306 -14Q190 -14 125 59T60 272V428ZM306 62Q387 62 427 118T468 278V422Q468 470 458 509T428 577T377 622T306 638Q265 638 235 622T185
578T154 510T144 422V278Q144 175 184 119T306 62ZM242 350Q242 376 261 395T306 414Q332 414 351 395T370 350Q370 324 351 305T306 286Q280 286 261 305T242 350Z" />
<glyph unicode="1" glyph-name="one" d="M269 78V663H257L142 400H59V406L190 700H353V78H551V0H71V78H269Z" />
<glyph unicode="2" glyph-name="two" d="M544 78V0H70V120Q70 168 86 203T131 264T203 307T298 336Q387 356 426 393T466 484V490Q466 517 457 543T429 590T381 623T310 636Q233 636 191 589T148 464V420H64V470Q64 518 80 562T127 640T204 694T310 714Q371 714
416 696T491 647T535 578T550 499V481Q550 401 500 345T340 264Q244 243 199 209T154 108V78H544Z" />
<glyph unicode="3" glyph-name="three" d="M237 348V464L465 610V622H69V700H537V572L309 426V414H349Q389 414 426 401T491 363T537 302T555 217V199Q555 154 537 115T487 48T412 3T317 -14Q258 -14 211 4T131 53T81 127T63 218V272H147V224Q147 186 159 157T194
107T248 75T315 64Q348 64 376 75T426 105T459 151T471 208V214Q471 277 431 312T331 348H237Z" />
<glyph unicode="4" glyph-name="four" d="M294 700H457V210H565V132H457V0H373V132H49V248L294 700ZM121 222V210H373V664H361L121 222Z" />
<glyph unicode="5" glyph-name="five" d="M78 330V700H516V622H160V372H172Q182 392 198 410T235 443T284 465T344 474Q392 474 432 458T502 413T547 343T564 252V234Q564 184 548 140T501 61T424 6T318 -14Q257 -14 210 4T131 54T83 129T66 224V252H150V230Q150
147 196 106T318 64Q358 64 388 78T439 117T470 174T480 242V248Q480 279 470 306T441 353T396 384T338 396Q317 396 300 390T269 375T248 353T236 330H78Z" />
<glyph unicode="6" glyph-name="six" d="M453 496Q453 561 413 600T302 640Q268 640 240 628T191 594T159 540T147 472V368H159Q183 412 227 437T327 462Q375 462 416 447T486 401T532 329T549 232V220Q549 168 531 125T480 51T403 3T306 -14Q254 -14 210 3T133
50T82 123T63 217V472Q63 527 82 572T134 648T210 697T304 714Q354 714 397 699T471 656T519 587T537 496H453ZM306 60Q342 60 371 71T422 104T454 154T465 218V230Q465 265 453 294T420 344T370 376T306 388Q272 388 243 376T193 343T159 294T147 234V215Q147
182 158 154T190 104T240 72T306 60Z" />
<glyph unicode="7" glyph-name="seven" d="M72 700H540V578L245 132Q224 100 213 77T202 30V0H120V36Q120 54 123 70T134 102T153 137T181 180L468 610V622H72V700Z" />
<glyph unicode="8" glyph-name="eight" d="M297 -14Q244 -14 201 0T127 40T80 100T63 176V188Q63 224 74 252T103 301T144 336T193 357V369Q170 376 150 390T115 423T90 466T81 520V532Q81 572 97 605T142 663T212 700T303 714H309Q358 714 399 701T469 663T515
606T531 532V520Q531 491 522 467T498 423T462 390T419 369V357Q444 350 467 336T509 301T538 252T549 188V176Q549 135 533 101T485 41T411 1T315 -14H297ZM312 62Q380 62 422 97T465 188V194Q465 256 422 290T309 324H303Q234 324 191 290T147 194V188Q147 132
189 97T300 62H312ZM306 402Q369 402 408 435T447 518V524Q447 575 409 606T306 638Q242 638 204 607T165 524V518Q165 468 204 435T306 402Z" />
<glyph unicode="9" glyph-name="nine" d="M159 204Q159 139 199 100T310 60Q344 60 372 72T421 106T453 159T465 228V332H453Q430 288 387 263T287 238Q238 238 197 253T126 297T80 369T63 465V477Q63 529 81 572T131 647T208 696T306 714Q359 714 403 697T480
648T531 574T549 480V228Q549 172 531 128T480 52T403 3T308 -14Q257 -14 214 1T140 44T92 113T75 204H159ZM306 640Q270 640 241 628T190 594T158 543T147 479V467Q147 432 159 404T192 355T242 323T306 312Q340 312 369 323T419 355T453 403T465 463V482Q465
515 454 544T422 594T372 628T306 640Z" />
<glyph unicode=":" glyph-name="colon" d="M236 56Q236 85 256 105T306 126Q335 126 355 106T376 56Q376 27 356 7T306 -14Q277 -14 257 6T236 56ZM236 440Q236 469 256 489T306 510Q335 510 355 490T376 440Q376 411 356 391T306 370Q277 370 257 390T236 440Z" />
<glyph unicode=";" glyph-name="semicolon" d="M236 56Q236 85 256 105T306 126Q335 126 355 106T376 56V-42Q376 -76 355 -98T299 -120H248V-66H295Q322 -66 322 -36V-11Q314 -14 305 -14Q277 -14 257 6T236 56ZM236 440Q236 469 256 489T306 510Q335 510 355
490T376 440Q376 411 356 391T306 370Q277 370 257 390T236 440Z" />
<glyph unicode="&lt;" glyph-name="less" d="M97 274V426L515 570V486L127 356V344L515 214V130L97 274Z" />
<glyph unicode="=" glyph-name="equal" d="M97 458H515V386H97V458ZM97 314H515V242H97V314Z" />
<glyph unicode="&gt;" glyph-name="greater" d="M97 130V214L485 344V356L97 486V570L515 426V274L97 130Z" />
<glyph unicode="?" glyph-name="question" d="M352 366Q397 366 426 399T456 486V492Q456 522 446 548T416 593T370 624T310 636Q238 636 197 592T156 476V434H72V482Q72 528 87 570T133 644T208 695T312 714Q362 714 404 697T476 651T523 583T540 501V483Q540
444 527 409T489 347T433 306T362 290H348Q320 290 320 260V186H240V280Q240 318 264 342T326 366H352ZM211 56Q211 85 231 105T281 126Q310 126 330 106T351 56Q351 27 331 7T281 -14Q252 -14 232 6T211 56Z" />
<glyph unicode="@" glyph-name="at" d="M78 510V582H368Q460 582 512 534T564 386V78Q564 44 543 22T487 0H407Q370 0 353 19T336 66H324Q312 28 284 7T208 -14Q171 -14 140 1T87 44T51 112T38 203V221Q38 271 51 311T86 379T140 423T206 438Q252 438 276 421T318
370H330V424H408V102Q408 72 435 72H459Q486 72 486 102V378Q486 443 456 476T360 510H78ZM223 60Q253 60 273 71T306 101T324 147T330 203V221Q330 249 325 275T307 321T274 352T223 364Q198 364 178 353T145 323T124 277T116 221V203Q116 140 144 100T223 60Z"
/>
<glyph unicode="A" glyph-name="A" d="M456 174H156L105 0H15L227 700H385L597 0H507L456 174ZM300 664L179 252H433L312 664H300Z" />
<glyph unicode="B" glyph-name="B" d="M57 78H117V622H57V700H340Q390 700 428 686T493 648T533 591T547 518V506Q547 477 538 453T513 410T476 378T429 357V345Q479 331 513 292T547 195V183Q547 144 534 111T494 53T429 14T340 0H57V78ZM201 78H334Q393 78 430
107T467 189V195Q467 249 432 280T337 312H201V78ZM201 390H337Q397 390 432 421T467 506V512Q467 563 430 592T334 622H201V390Z" />
<glyph unicode="C" glyph-name="C" d="M310 64Q353 64 383 78T433 117T462 173T472 240V252H556V240Q556 187 540 141T493 60T416 6T310 -14Q194 -14 129 59T64 272V428Q64 564 129 639T310 714Q370 714 416 695T493 641T540 560T556 460V448H472V460Q471 494
462 526T433 582T383 621T310 636Q229 636 189 577T148 422V278Q148 175 188 120T310 64Z" />
<glyph unicode="D" glyph-name="D" d="M73 700H303Q433 700 493 638T553 440V260Q553 124 493 62T303 0H73V79H133V622H73V700ZM291 78Q337 78 370 87T426 117T458 175T469 266V434Q469 489 459 525T426 582T371 613T291 622H217V78H291Z" />
<glyph unicode="E" glyph-name="E" d="M94 700H518V622H178V390H512V312H178V78H524V0H94V700Z" />
<glyph unicode="F" glyph-name="F" d="M95 700H525V622H179V390H519V312H179V0H95V700Z" />
<glyph unicode="G" glyph-name="G" d="M239 336H551V0H473V84H461Q444 40 401 13T301 -14Q188 -14 124 59T59 272V428Q59 564 124 639T305 714Q365 714 411 695T488 641T535 560T551 460V448H467V460Q467 494 458 526T429 582T379 621T305 636Q224 636 184 577T143
422V278Q143 175 183 120T307 64Q382 64 424 112T467 246V258H239V336Z" />
<glyph unicode="H" glyph-name="H" d="M73 700H157V390H455V700H539V0H455V312H157V0H73V700Z" />
<glyph unicode="I" glyph-name="I" d="M84 700H528V622H348V78H528V0H84V78H264V622H84V700Z" />
<glyph unicode="J" glyph-name="J" d="M505 210Q505 101 452 44T295 -14Q192 -14 133 43T73 210V264H157V210Q157 144 191 104T295 64Q365 64 393 104T421 210V622H349V700H565V622H505V210Z" />
<glyph unicode="K" glyph-name="K" d="M173 0H89V700H173V390H196L465 700H569V694L279 356V344L581 6V0H475L196 312H173V0Z" />
<glyph unicode="L" glyph-name="L" d="M87 700H171V78H537V0H87V700Z" />
<glyph unicode="M" glyph-name="M" d="M46 700H206L300 36H312L406 700H566V0H488V664H476L382 0H230L136 664H124V0H46V700Z" />
<glyph unicode="N" glyph-name="N" d="M443 36H455V700H539V0H371L169 664H157V0H73V700H241L443 36Z" />
<glyph unicode="O" glyph-name="O" d="M60 428Q60 564 125 639T306 714Q422 714 487 639T552 428V272Q552 132 487 59T306 -14Q190 -14 125 59T60 272V428ZM306 64Q387 64 427 119T468 278V422Q468 518 428 577T306 636Q225 636 185 577T144 422V278Q144 175 184
120T306 64Z" />
<glyph unicode="P" glyph-name="P" d="M169 288V0H85V700H335Q389 700 429 685T495 643T535 583T549 510V480Q549 442 536 407T495 346T428 304T335 288H169ZM169 366H325Q465 366 465 486V504Q465 557 431 589T325 622H169V366Z" />
<glyph unicode="Q" glyph-name="Q" d="M60 428Q60 564 125 639T306 714Q422 714 487 639T552 428V272Q552 144 498 72T345 -12V-54Q345 -84 372 -84H456V-156H344Q310 -156 289 -134T267 -78V-12Q168 0 114 72T60 272V428ZM306 64Q387 64 427 119T468 278V422Q468
518 428 577T306 636Q225 636 185 577T144 422V278Q144 175 184 120T306 64Z" />
<glyph unicode="R" glyph-name="R" d="M525 0H441V234Q441 260 429 274T387 288H169V0H85V700H335Q389 700 429 685T495 643T535 583T549 510V480Q549 441 528 402T461 342V330Q491 325 508 306T525 252V0ZM169 366H325Q396 366 430 396T465 486V504Q465 557 431
589T325 622H169V366Z" />
<glyph unicode="S" glyph-name="S" d="M471 498Q471 532 458 558T421 601T368 627T305 636Q276 636 250 629T204 607T171 573T159 525V519Q159 490 171 470T206 435T265 411T347 394Q457 377 509 330T561 202V190Q561 145 546 108T500 43T424 1T320 -14Q253 -14
202 5T116 59T63 140T45 242V272H129V248Q129 156 179 110T320 64Q398 64 437 98T477 190V196Q477 251 437 280T305 322Q252 329 210 343T137 381T91 438T75 516V528Q75 569 92 603T139 662T212 700T306 714Q365 714 411 697T490 652T538 585T555 504V462H471V498Z"
/>
<glyph unicode="T" glyph-name="T" d="M60 700H552V622H348V0H264V622H60V700Z" />
<glyph unicode="U" glyph-name="U" d="M150 700V236Q150 151 189 108T306 64Q383 64 422 107T462 236V700H546V236Q546 114 482 50T306 -14Q194 -14 130 50T66 236V700H150Z" />
<glyph unicode="V" glyph-name="V" d="M27 700H117L300 36H312L495 700H585L387 0H225L27 700Z" />
<glyph unicode="W" glyph-name="W" d="M530 0H377L312 664H300L235 0H82L11 700H87L154 36H166L229 700H383L446 36H458L525 700H601L530 0Z" />
<glyph unicode="X" glyph-name="X" d="M140 700L297 390H315L472 700H564L389 357V345L564 0H472L315 312H297L140 0H48L223 345V357L48 700H140Z" />
<glyph unicode="Y" glyph-name="Y" d="M264 246H246L27 700H121L300 318H312L491 700H585L366 246H348V0H264V246Z" />
<glyph unicode="Z" glyph-name="Z" d="M77 700H545V574L125 90V78H557V0H53V126L473 610V622H77V700Z" />
<glyph unicode="[" glyph-name="bracketleft" d="M264 778Q264 812 285 834T341 856H438V784H369Q342 784 342 754V-54Q342 -84 369 -84H438V-156H341Q307 -156 286 -134T264 -78V778Z" />
<glyph unicode="\" glyph-name="backslash" d="M487 -84L416 -106L125 784L195 806L487 -84Z" />
<glyph unicode="]" glyph-name="bracketright" d="M348 -78Q348 -112 327 -134T271 -156H174V-84H243Q270 -84 270 -54V754Q270 784 243 784H174V856H271Q305 856 326 834T348 778V-78Z" />
<glyph unicode="^" glyph-name="asciicircum" d="M540 424H448L312 670H300L164 424H72L230 700H382L540 424Z" />
<glyph unicode="_" glyph-name="underscore" d="M73 -48H539V-120H73V-48Z" />
<glyph unicode="`" glyph-name="grave" d="M316 688L382 570H310L226 688H316Z" />
<glyph unicode="a" glyph-name="a" d="M447 84H435Q411 34 369 10T279 -14Q230 -14 188 2T115 51T65 131T47 240V256Q47 317 65 364T114 443T188 493T277 510Q328 510 369 488T435 418H447V496H525V102Q525 72 552 72H577V0H524Q490 0 469 22T447 78V84ZM287 60Q322
60 351 73T402 110T435 167T447 242V254Q447 294 435 327T402 385T351 422T287 436Q252 436 223 423T173 387T139 330T127 256V240Q127 155 171 108T287 60Z" />
<glyph unicode="b" glyph-name="b" d="M147 0H69V700H147V418H159Q185 463 231 486T331 510Q377 510 418 493T490 444T540 365T559 258V238Q559 177 541 130T492 51T418 3T329 -14Q305 -14 280 -9T233 8T191 36T159 76H147V0ZM313 60Q349 60 379 72T431 108T466
164T479 238V258Q479 298 467 330T432 386T379 423T313 436Q278 436 248 423T196 385T160 328T147 254V242Q147 201 160 168T195 110T248 73T313 60Z" />
<glyph unicode="c" glyph-name="c" d="M551 176Q543 135 524 100T474 40T404 0T315 -14Q263 -14 217 3T135 52T80 132T59 240V252Q59 312 79 360T135 441T216 492T315 510Q362 510 402 496T472 457T522 396T549 320L471 302Q468 328 457 352T426 395T378 425T313
436Q277 436 246 423T190 385T153 326T139 252V240Q139 198 152 165T190 108T246 73T315 60Q352 60 379 71T426 101T457 144T473 194L551 176Z" />
<glyph unicode="d" glyph-name="d" d="M471 76H459Q447 53 429 36T389 8T343 -8T297 -14Q247 -14 204 3T129 52T78 131T59 240V256Q59 316 78 363T129 443T204 493T295 510Q346 510 390 488T459 418H471V700H549V0H471V76ZM305 60Q340 60 370 73T422 110T458 167T471
242V254Q471 294 458 327T423 385T370 422T305 436Q270 436 240 423T187 386T152 329T139 256V240Q139 198 151 165T186 109T239 73T305 60Z" />
<glyph unicode="e" glyph-name="e" d="M144 224Q147 150 190 105T310 60Q345 60 371 68T415 90T445 122T464 162L538 142Q517 73 461 30T308 -14Q255 -14 211 4T134 57T84 138T66 242V266Q66 318 84 363T136 440T213 491T310 510Q371 510 415 488T488 432T530
360T544 288V224H144ZM310 436Q277 436 249 426T199 396T164 352T146 296H466Q464 328 451 354T416 398T367 426T310 436Z" />
<glyph unicode="f" glyph-name="f" d="M82 496H235V622Q235 656 256 678T312 700H508V628H340Q313 628 313 598V496H520V424H313V0H235V424H82V496Z" />
<glyph unicode="g" glyph-name="g" d="M464 76H452Q428 31 387 9T296 -14Q246 -14 202 3T125 52T72 131T52 240V256Q52 316 72 363T125 443T202 493T294 510Q348 510 388 487T452 418H464V496H542V-122Q542 -156 521 -178T465 -200H142V-128H437Q464 -128 464
-98V76ZM298 60Q333 60 363 73T415 110T451 167T464 242V254Q464 294 451 327T416 385T363 422T298 436Q263 436 233 423T180 386T145 329T132 256V240Q132 198 144 165T179 109T232 73T298 60Z" />
<glyph unicode="h" glyph-name="h" d="M165 0H87V700H165V406H177Q200 454 241 482T343 510Q424 510 474 457T525 296V0H447V280Q447 358 412 397T317 436Q246 436 206 388T165 258V0Z" />
<glyph unicode="i" glyph-name="i" d="M241 644Q241 673 261 693T311 714Q340 714 360 694T381 644Q381 615 361 595T311 574Q282 574 262 594T241 644ZM99 72H273V424H117V496H351V72H513V0H99V72Z" />
<glyph unicode="j" glyph-name="j" d="M307 644Q307 673 327 693T377 714Q406 714 426 694T447 644Q447 615 427 595T377 574Q348 574 328 594T307 644ZM141 496H417V-122Q417 -156 396 -178T340 -200H117V-128H312Q339 -128 339 -98V424H141V496Z" />
<glyph unicode="k" glyph-name="k" d="M215 290H232L421 496H517V490L311 263V245L541 6V0H445L234 218H215V0H137V700H215V290Z" />
<glyph unicode="l" glyph-name="l" d="M87 72H267V628H93V700H345V72H525V0H87V72Z" />
<glyph unicode="m" glyph-name="m" d="M564 0H486V356Q486 391 470 413T419 436Q386 436 366 412T345 336V0H267V360Q267 393 249 414T201 436Q165 436 146 410T126 342V0H48V496H126V442H138Q151 477 176 493T235 510Q271 510 294 491T327 442H339Q373 510 447
510Q503 510 533 475T564 382V0Z" />
<glyph unicode="n" glyph-name="n" d="M165 0H87V496H165V412H177Q223 510 337 510Q423 510 474 457T525 296V0H447V280Q447 358 412 397T317 436Q246 436 206 388T165 258V0Z" />
<glyph unicode="o" glyph-name="o" d="M555 242Q555 180 535 133T480 53T401 3T306 -14Q256 -14 211 3T132 52T78 132T57 242V254Q57 315 77 362T132 443T212 493T306 510Q355 510 400 493T479 443T534 363T555 254V242ZM306 60Q342 60 372 72T426 109T462 166T475
242V254Q475 294 462 327T426 385T372 422T306 436Q271 436 240 423T186 385T150 328T137 254V242Q137 200 150 167T186 109T239 73T306 60Z" />
<glyph unicode="p" glyph-name="p" d="M147 -200H69V496H147V418H159Q185 463 231 486T331 510Q377 510 418 493T490 444T540 365T559 258V238Q559 177 541 130T492 51T418 3T329 -14Q305 -14 280 -9T233 8T191 36T159 76H147V-200ZM313 60Q349 60 379 72T431
108T466 164T479 238V258Q479 298 467 330T432 386T379 423T313 436Q278 436 248 423T196 385T160 328T147 254V242Q147 201 160 168T195 110T248 73T313 60Z" />
<glyph unicode="q" glyph-name="q" d="M467 76H455Q442 53 424 37T384 9T339 -8T293 -14Q243 -14 200 3T125 52T74 131T55 240V256Q55 316 74 363T125 443T200 493T291 510Q342 510 385 487T455 418H467V496H545V-200H467V76ZM301 60Q336 60 366 73T418 110T454
167T467 242V254Q467 294 454 327T419 385T366 422T301 436Q266 436 236 423T183 386T148 329T135 256V240Q135 198 147 165T182 109T235 73T301 60Z" />
<glyph unicode="r" glyph-name="r" d="M59 496H239V430H251Q270 471 305 490T385 510Q460 510 506 461T555 318L473 306Q473 375 440 405T359 436Q328 436 306 424T268 391T246 342T239 282V72H365V0H47V72H161V424H59V496Z" />
<glyph unicode="s" glyph-name="s" d="M190 368Q190 332 220 313T332 288Q419 281 464 247T510 146V140Q510 104 496 76T456 27T394 -3T314 -14Q256 -14 215 1T146 42T104 100T88 166L162 184Q167 127 206 93T310 58Q365 58 398 79T432 140Q432 182 399 200T292
223Q206 229 160 263T114 362V368Q114 403 129 429T169 474T227 501T294 510Q343 510 380 497T442 462T480 412T498 356L424 338Q419 386 386 413T298 440Q277 440 258 436T223 422T199 400T190 368Z" />
<glyph unicode="t" glyph-name="t" d="M70 496H226V700H304V496H496V424H304V102Q304 72 331 72H472V0H303Q269 0 248 22T226 78V424H70V496Z" />
<glyph unicode="u" glyph-name="u" d="M441 496H519V0H441V90H429Q405 42 366 14T267 -14Q226 -14 192 -1T133 40T95 107T81 200V496H159V210Q159 132 191 96T289 60Q360 60 400 108T441 238V496Z" />
<glyph unicode="v" glyph-name="v" d="M382 0H228L55 496H147L299 36H311L463 496H555L382 0Z" />
<glyph unicode="w" glyph-name="w" d="M516 0H372L312 460H300L240 0H96L18 496H98L164 36H176L234 496H378L436 36H448L514 496H594L516 0Z" />
<glyph unicode="x" glyph-name="x" d="M440 496H529L383 260V248L541 0H450L315 218H297L162 0H71L229 248V260L83 496H172L297 290H315L440 496Z" />
<glyph unicode="y" glyph-name="y" d="M447 90H435Q411 42 372 14T273 -14Q232 -14 198 -1T139 40T101 107T87 200V496H165V210Q165 132 197 96T295 60Q366 60 406 108T447 238V496H525V-122Q525 -156 504 -178T448 -200H165V-128H420Q447 -128 447 -98V90Z" />
<glyph unicode="z" glyph-name="z" d="M523 72V0H91V124L445 412V424H97V496H511V376L155 84V72H523Z" />
<glyph unicode="{" glyph-name="braceleft" d="M278 778Q278 812 299 834T355 856H452V784H383Q356 784 356 754V434Q356 400 335 378T278 356H266V344H278Q313 344 334 322T356 266V-54Q356 -84 383 -84H452V-156H355Q321 -156 300 -134T278 -78V267Q278 296
251 296H200V404H251Q278 404 278 433V778Z" />
<glyph unicode="|" glyph-name="bar" d="M342 -156H270V856H342V-156Z" />
<glyph unicode="}" glyph-name="braceright" d="M334 433Q334 404 361 404H412V296H361Q334 296 334 267V-78Q334 -112 313 -134T257 -156H160V-84H229Q256 -84 256 -54V266Q256 300 277 322T334 344H346V356H334Q299 356 278 378T256 434V754Q256 784 229 784H160V856H257Q291
856 312 834T334 778V433Z" />
<glyph unicode="~" glyph-name="asciitilde" d="M338 316Q340 308 345 300T361 291Q369 291 381 300L510 395L548 345L425 251Q411 240 396 232T357 224Q318 224 301 244T273 300Q271 309 267 318T250 328Q241 328 227 317L101 224L63 274L186 368Q201 380 217
387T254 395Q292 395 309 374T338 316Z" />
<glyph unicode="&#xa0;" glyph-name="uni00A0" />
<glyph unicode="&#xa1;" glyph-name="exclamdown" d="M236 444Q236 415 256 395T306 374Q335 374 355 394T376 444Q376 473 356 493T306 514Q277 514 257 494T236 444ZM346 -200V314H266V-200H346Z" />
<glyph unicode="&#xa2;" glyph-name="cent" d="M351 609Q432 599 484 548T550 422L472 404Q467 449 437 486T351 534V165Q379 170 400 182T437 213T461 252T474 296L552 278Q538 203 486 152T351 90V28H279V90Q233 96 193 115T124 166T77 243T60 342V354Q60 408
77 452T123 530T193 583T279 609V672H351V609ZM140 342Q140 305 150 275T179 223T223 186T279 165V534Q249 528 224 513T180 474T151 420T140 354V342Z" />
<glyph unicode="&#xa3;" glyph-name="sterling" d="M248 366H338V294H248V174H490V102H110V174H170V294H110V366H170V440Q170 523 214 567T336 612Q411 612 456 568T502 440V416H424V440Q424 491 399 515T336 540Q298 540 273 516T248 440V366Z" />
<glyph unicode="&#xa4;" glyph-name="currency" d="M56 350Q56 391 68 428T103 496L44 555L101 612L160 553Q191 575 227 587T306 600Q347 600 384 588T452 553L511 612L568 555L509 496Q531 465 543 428T556 350Q556 308 544 272T509 204L568 145L511 88L452
147Q421 124 384 112T306 100Q264 100 228 112T160 147L101 88L44 145L103 204Q80 235 68 271T56 350ZM134 350Q134 314 147 283T184 228T238 192T306 178Q342 178 373 191T428 228T464 282T478 350Q478 386 465 417T428 472T374 508T306 522Q270 522 239 509T184
472T148 418T134 350Z" />
<glyph unicode="&#xa5;" glyph-name="yen" d="M132 366H218L96 598H182L300 366H312L430 598H516L394 366H480V294H342V258H480V186H342V102H270V186H132V258H270V294H132V366Z" />
<glyph unicode="&#xa6;" glyph-name="brokenbar" d="M342 314V-156H270V314H342ZM270 386V856H342V386H270Z" />
<glyph unicode="&#xa7;" glyph-name="section" d="M184 494Q184 510 189 522T202 545Q195 556 190 571T184 604Q184 629 194 649T221 684T262 706T312 714Q343 714 367 705T407 680T431 645T439 604V588H371V594Q371 615 354 631T308 648Q282 648 268 636T254
605Q254 587 271 575T340 554Q392 545 418 520T445 448Q445 433 440 421T428 395Q445 371 445 336Q445 285 409 252T312 218Q243 218 208 255T172 347V359H240V353Q240 325 258 305T314 284Q349 284 362 299T375 331Q375 351 359 364T294 386Q273 390 254 396T219
415T194 446T184 494ZM340 441Q348 439 357 437T374 432Q375 434 375 438T375 445Q375 463 359 476T294 499Q285 501 275 503T256 509Q255 507 255 502T254 493Q254 476 271 463T340 441Z" />
<glyph unicode="&#xa8;" glyph-name="dieresis" d="M136 644Q136 673 156 693T206 714Q235 714 255 694T276 644Q276 615 256 595T206 574Q177 574 157 594T136 644ZM336 644Q336 673 356 693T406 714Q435 714 455 694T476 644Q476 615 456 595T406 574Q377 574
357 594T336 644Z" />
<glyph unicode="&#xa9;" glyph-name="copyright" d="M58 556Q58 607 77 652T130 731T209 784T306 804Q357 804 402 785T481 732T534 653T554 556Q554 505 535 460T482 381T403 328T306 308Q255 308 210 327T131 380T78 459T58 556ZM106 556Q106 514 121 478T164
414T227 372T306 356Q348 356 384 371T448 414T490 477T506 556Q506 598 491 634T448 698T385 740T306 756Q264 756 228 741T164 698T122 635T106 556ZM306 454Q329 454 342 468T355 505V523H409V511Q409 465 383 436T306 406Q256 406 229 435T201 511V601Q201
647 229 676T306 706Q357 706 383 677T409 601V589H355V607Q355 629 342 643T306 658Q283 658 269 644T255 607V505Q255 483 269 469T306 454Z" />
<glyph unicode="&#xaa;" glyph-name="ordfeminine" d="M373 452Q363 428 340 417T289 406Q262 406 238 416T196 445T168 492T157 556Q157 592 167 619T196 666T238 696T291 706Q350 706 373 666H379V698H445V489Q445 472 461 472H475V412H427Q407 412 394 422T379
452H373ZM301 466Q333 466 356 487T379 556Q379 601 358 623T301 646Q265 646 244 621T223 556Q223 512 244 489T301 466Z" />
<glyph unicode="&#xab;" glyph-name="guillemotleft" d="M312 12L78 170V326L312 484H318V396L108 254V242L318 100V12H312ZM528 12L294 170V326L528 484H534V396L324 254V242L534 100V12H528Z" />
<glyph unicode="&#xac;" glyph-name="logicalnot" d="M97 386H515V230H443V314H97V386Z" />
<glyph unicode="&#xae;" glyph-name="registered" d="M58 556Q58 607 77 652T130 731T209 784T306 804Q357 804 402 785T481 732T534 653T554 556Q554 505 535 460T482 381T403 328T306 308Q255 308 210 327T131 380T78 459T58 556ZM106 556Q106 514 121 478T164
414T227 372T306 356Q348 356 384 371T448 414T490 477T506 556Q506 598 491 634T448 698T385 740T306 756Q264 756 228 741T164 698T122 635T106 556ZM402 412H348V495Q348 506 342 513T323 520H276V412H222V700H318Q363 700 385 676T408 620Q408 594 400 577T368
549V543Q386 541 394 529T402 502V412ZM276 568H308Q331 568 342 580T354 612Q354 631 343 642T308 653H276V568Z" />
<glyph unicode="&#xaf;" glyph-name="overscore" d="M447 570H165V636H447V570Z" />
<glyph unicode="&#xb0;" glyph-name="degree" d="M161 569Q161 599 172 625T203 671T249 702T306 714Q336 714 362 703T408 672T439 626T451 569Q451 539 440 513T409 467T363 436T306 424Q276 424 250 435T204 466T173 512T161 569ZM233 569Q233 539 254 518T306
496Q336 496 357 517T379 569Q379 599 358 620T306 642Q276 642 255 621T233 569Z" />
<glyph unicode="&#xb1;" glyph-name="plusminus" d="M97 386H270V559H342V386H515V314H342V141H270V314H97V386ZM97 72H515V0H97V72Z" />
<glyph unicode="&#xb2;" glyph-name="twosuperior" d="M405 460V412H210V466Q210 508 234 530T306 564Q339 572 346 586T354 614Q354 631 343 644T308 658Q285 658 272 644T258 604V586H204V604Q204 646 231 676T310 706Q334 706 352 699T383 679T401 650T408
616Q408 580 390 554T324 518Q288 510 276 498T264 466V460H405Z" />
<glyph unicode="&#xb3;" glyph-name="threesuperior" d="M276 542V618L358 646V652H213V700H400V616L318 588V582H324Q360 582 384 562T408 502Q408 459 381 433T308 406Q260 406 232 434T204 502V518H258V504Q258 481 270 468T306 454Q329 454 341 466T354 498Q354
522 340 532T308 542H276Z" />
<glyph unicode="&#xb4;" glyph-name="acute" d="M386 688L302 570H230L296 688H386Z" />
<glyph unicode="&#xb5;" glyph-name="mu" d="M447 60H435Q424 32 393 9T306 -14Q250 -14 219 9T177 60H165V-200H87V496H165V216Q165 138 205 99T306 60Q366 60 406 99T447 216V496H525V0H447V60Z" />
<glyph unicode="&#xb6;" glyph-name="paragraph" d="M269 424Q239 424 213 435T167 466T136 512T124 569Q124 599 135 625T166 671T212 702T269 714H449V218H377V642H341V218H269V424ZM269 642Q239 642 218 621T196 569Q196 539 217 518T269 496V642Z" />
<glyph unicode="&#xb7;" glyph-name="middot" d="M236 350Q236 379 256 399T306 420Q335 420 355 400T376 350Q376 321 356 301T306 280Q277 280 257 300T236 350Z" />
<glyph unicode="&#xb8;" glyph-name="cedilla" d="M281 0L266 -68H272Q285 -36 326 -36Q361 -36 381 -61T402 -121Q402 -163 375 -187T309 -212Q266 -212 243 -192T212 -142L260 -124Q263 -139 274 -151T308 -164Q323 -164 335 -154T348 -122Q348 -104 338 -94T313
-84Q295 -84 288 -98H212V-92L232 0H281Z" />
<glyph unicode="&#xb9;" glyph-name="onesuperior" d="M293 460V670H284L262 577H209L241 700H347V460H418V412H215V460H293Z" />
<glyph unicode="&#xba;" glyph-name="ordmasculine" d="M157 556Q157 593 169 621T203 668T250 696T306 706Q334 706 361 697T409 668T442 621T455 556Q455 519 443 491T409 444T361 416T306 406Q277 406 251 415T203 444T170 491T157 556ZM306 466Q340 466 364
489T389 556Q389 600 365 623T306 646Q272 646 248 623T223 556Q223 512 247 489T306 466Z" />
<glyph unicode="&#xbb;" glyph-name="guillemotright" d="M294 12V100L504 242V254L294 396V484H300L534 326V170L300 12H294ZM78 12V100L288 242V254L78 396V484H84L318 326V170L84 12H78Z" />
<glyph unicode="&#xbc;" glyph-name="onequarter" d="M531 494L555 448L82 207L58 253L531 494ZM136 460V670H127L105 577H52L84 700H190V460H261V412H58V460H136ZM410 289H509V103H549V55H509V1H455V55H325V121L410 289ZM373 109V103H455V259H449L373 109Z" />
<glyph unicode="&#xbd;" glyph-name="onehalf" d="M531 494L555 448L82 207L58 253L531 494ZM552 49V1H357V55Q357 97 381 119T453 153Q486 161 493 175T501 203Q501 220 490 233T455 247Q432 247 419 233T405 193V175H351V193Q351 235 378 265T457 295Q481 295
499 288T530 268T548 239T555 205Q555 169 537 143T471 107Q435 99 423 87T411 55V49H552ZM136 460V670H127L105 577H52L84 700H190V460H261V412H58V460H136Z" />
<glyph unicode="&#xbe;" glyph-name="threequarters" d="M531 494L555 448L82 207L58 253L531 494ZM410 289H509V103H549V55H509V1H455V55H325V121L410 289ZM373 109V103H455V259H449L373 109ZM121 542V618L203 646V652H58V700H245V616L163 588V582H169Q205 582
229 562T253 502Q253 459 226 433T153 406Q105 406 77 434T49 502V518H103V504Q103 481 115 468T151 454Q174 454 186 466T199 498Q199 522 185 532T153 542H121Z" />
<glyph unicode="&#xbf;" glyph-name="questiondown" d="M260 136Q215 136 186 103T156 16V10Q156 -20 166 -46T196 -91T242 -122T302 -134Q374 -134 415 -90T456 26V68H540V20Q540 -26 525 -68T479 -142T404 -193T300 -212Q250 -212 208 -195T136 -149T89 -81T72
1V19Q72 58 85 93T123 155T179 196T250 212H264Q292 212 292 242V316H372V222Q372 184 348 160T286 136H260ZM401 446Q401 417 381 397T331 376Q302 376 282 396T261 446Q261 475 281 495T331 516Q360 516 380 496T401 446Z" />
<glyph unicode="&#xc0;" glyph-name="Agrave" d="M456 174H156L105 0H15L227 700H385L597 0H507L456 174ZM300 664L179 252H433L312 664H300ZM271 892L337 774H265L181 892H271Z" />
<glyph unicode="&#xc1;" glyph-name="Aacute" d="M456 174H156L105 0H15L227 700H385L597 0H507L456 174ZM300 664L179 252H433L312 664H300ZM431 892L347 774H275L341 892H431Z" />
<glyph unicode="&#xc2;" glyph-name="Acircumflex" d="M456 174H156L105 0H15L227 700H385L597 0H507L456 174ZM300 664L179 252H433L312 664H300ZM364 774L312 862H300L248 774H164L244 892H368L448 774H364Z" />
<glyph unicode="&#xc3;" glyph-name="Atilde" d="M456 174H156L105 0H15L227 700H385L597 0H507L456 174ZM300 664L179 252H433L312 664H300ZM337 846Q342 836 347 831T361 826Q371 826 380 836L428 891L477 849L436 800Q422 783 403 771T358 758Q327 758 311
772T277 817Q270 829 266 834T253 839Q242 839 231 827L185 774L136 816L177 865Q191 882 210 894T256 907Q285 907 302 893T337 846Z" />
<glyph unicode="&#xc4;" glyph-name="Adieresis" d="M456 174H156L105 0H15L227 700H385L597 0H507L456 174ZM300 664L179 252H433L312 664H300ZM136 848Q136 877 156 897T206 918Q235 918 255 898T276 848Q276 819 256 799T206 778Q177 778 157 798T136 848ZM336
848Q336 877 356 897T406 918Q435 918 455 898T476 848Q476 819 456 799T406 778Q377 778 357 798T336 848Z" />
<glyph unicode="&#xc5;" glyph-name="Aring" d="M456 174H156L105 0H15L227 700H385L597 0H507L456 174ZM300 664L179 252H433L312 664H300ZM204 874Q204 917 233 946T306 976Q349 976 378 947T408 874Q408 831 379 802T306 772Q263 772 234 801T204 874ZM264
874Q264 856 276 844T306 832Q324 832 336 844T348 874Q348 892 336 904T306 916Q288 916 276 904T264 874Z" />
<glyph unicode="&#xc6;" glyph-name="AE" d="M300 174H156L105 0H15L227 700H540V622H384V390H534V312H384V78H546V0H300V174ZM179 252H300V622H288L179 252Z" />
<glyph unicode="&#xc7;" glyph-name="Ccedilla" d="M310 64Q353 64 383 78T433 117T462 173T472 240V252H556V240Q556 187 540 141T493 60T416 6T310 -14H302L290 -68H296Q309 -36 350 -36Q385 -36 405 -61T426 -121Q426 -163 399 -187T333 -212Q290 -212 267
-192T236 -142L284 -124Q287 -139 298 -151T332 -164Q347 -164 359 -154T372 -122Q372 -104 362 -94T337 -84Q319 -84 312 -98H236V-92L254 -9Q163 7 114 78T64 272V428Q64 564 129 639T310 714Q370 714 416 695T493 641T540 560T556 460V448H472V460Q471 494 462
526T433 582T383 621T310 636Q229 636 189 577T148 422V278Q148 175 188 120T310 64Z" />
<glyph unicode="&#xc8;" glyph-name="Egrave" d="M94 700H518V622H178V390H512V312H178V78H524V0H94V700ZM292 892L358 774H286L202 892H292Z" />
<glyph unicode="&#xc9;" glyph-name="Eacute" d="M94 700H518V622H178V390H512V312H178V78H524V0H94V700ZM435 892L351 774H279L345 892H435Z" />
<glyph unicode="&#xca;" glyph-name="Ecircumflex" d="M94 700H518V622H178V390H512V312H178V78H524V0H94V700ZM366 774L314 862H302L250 774H166L246 892H370L450 774H366Z" />
<glyph unicode="&#xcb;" glyph-name="Edieresis" d="M94 700H518V622H178V390H512V312H178V78H524V0H94V700ZM140 848Q140 877 160 897T210 918Q239 918 259 898T280 848Q280 819 260 799T210 778Q181 778 161 798T140 848ZM340 848Q340 877 360 897T410 918Q439
918 459 898T480 848Q480 819 460 799T410 778Q381 778 361 798T340 848Z" />
<glyph unicode="&#xcc;" glyph-name="Igrave" d="M84 700H528V622H348V78H528V0H84V78H264V622H84V700ZM275 892L341 774H269L185 892H275Z" />
<glyph unicode="&#xcd;" glyph-name="Iacute" d="M84 700H528V622H348V78H528V0H84V78H264V622H84V700ZM426 892L342 774H270L336 892H426Z" />
<glyph unicode="&#xce;" glyph-name="Icircumflex" d="M84 700H528V622H348V78H528V0H84V78H264V622H84V700ZM364 774L312 862H300L248 774H164L244 892H368L448 774H364Z" />
<glyph unicode="&#xcf;" glyph-name="Idieresis" d="M84 700H528V622H348V78H528V0H84V78H264V622H84V700ZM136 848Q136 877 156 897T206 918Q235 918 255 898T276 848Q276 819 256 799T206 778Q177 778 157 798T136 848ZM336 848Q336 877 356 897T406 918Q435
918 455 898T476 848Q476 819 456 799T406 778Q377 778 357 798T336 848Z" />
<glyph unicode="&#xd0;" glyph-name="Eth" d="M73 389H133V622H73V700H303Q433 700 493 638T553 440V260Q553 124 493 62T303 0H73V78H133V311H73V389ZM291 78Q337 78 370 87T426 117T458 175T469 266V434Q469 489 459 525T426 582T371 613T291 622H217V389H325V311H217V78H291Z"
/>
<glyph unicode="&#xd1;" glyph-name="Ntilde" d="M443 36H455V700H539V0H371L169 664H157V0H73V700H241L443 36ZM344 846Q349 836 354 831T368 826Q378 826 387 836L435 891L484 849L443 800Q429 783 410 771T365 758Q334 758 318 772T284 817Q277 829 273 834T260
839Q249 839 238 827L192 774L143 816L184 865Q198 882 217 894T263 907Q292 907 309 893T344 846Z" />
<glyph unicode="&#xd2;" glyph-name="Ograve" d="M60 428Q60 564 125 639T306 714Q422 714 487 639T552 428V272Q552 132 487 59T306 -14Q190 -14 125 59T60 272V428ZM306 64Q387 64 427 119T468 278V422Q468 518 428 577T306 636Q225 636 185 577T144 422V278Q144
175 184 120T306 64ZM279 892L345 774H273L189 892H279Z" />
<glyph unicode="&#xd3;" glyph-name="Oacute" d="M60 428Q60 564 125 639T306 714Q422 714 487 639T552 428V272Q552 132 487 59T306 -14Q190 -14 125 59T60 272V428ZM306 64Q387 64 427 119T468 278V422Q468 518 428 577T306 636Q225 636 185 577T144 422V278Q144
175 184 120T306 64ZM430 892L346 774H274L340 892H430Z" />
<glyph unicode="&#xd4;" glyph-name="Ocircumflex" d="M60 428Q60 564 125 639T306 714Q422 714 487 639T552 428V272Q552 132 487 59T306 -14Q190 -14 125 59T60 272V428ZM306 64Q387 64 427 119T468 278V422Q468 518 428 577T306 636Q225 636 185 577T144 422V278Q144
175 184 120T306 64ZM364 774L312 862H300L248 774H164L244 892H368L448 774H364Z" />
<glyph unicode="&#xd5;" glyph-name="Otilde" d="M60 428Q60 564 125 639T306 714Q422 714 487 639T552 428V272Q552 132 487 59T306 -14Q190 -14 125 59T60 272V428ZM306 64Q387 64 427 119T468 278V422Q468 518 428 577T306 636Q225 636 185 577T144 422V278Q144
175 184 120T306 64ZM337 846Q342 836 347 831T361 826Q371 826 380 836L428 891L477 849L436 800Q422 783 403 771T358 758Q327 758 311 772T277 817Q270 829 266 834T253 839Q242 839 231 827L185 774L136 816L177 865Q191 882 210 894T256 907Q285 907 302 893T337
846Z" />
<glyph unicode="&#xd6;" glyph-name="Odieresis" d="M60 428Q60 564 125 639T306 714Q422 714 487 639T552 428V272Q552 132 487 59T306 -14Q190 -14 125 59T60 272V428ZM306 64Q387 64 427 119T468 278V422Q468 518 428 577T306 636Q225 636 185 577T144 422V278Q144
175 184 120T306 64ZM136 848Q136 877 156 897T206 918Q235 918 255 898T276 848Q276 819 256 799T206 778Q177 778 157 798T136 848ZM336 848Q336 877 356 897T406 918Q435 918 455 898T476 848Q476 819 456 799T406 778Q377 778 357 798T336 848Z" />
<glyph unicode="&#xd7;" glyph-name="multiply" d="M453 152L306 299L159 152L108 203L255 350L108 497L159 548L306 401L453 548L504 497L357 350L504 203L453 152Z" />
<glyph unicode="&#xd8;" glyph-name="Oslash" d="M161 27Q112 61 86 122T60 272V428Q60 564 125 639T306 714Q346 714 384 703L407 774L477 752L450 671Q499 636 525 575T552 428V272Q552 132 487 59T306 -14Q262 -14 229 -4L202 -86L131 -64L161 27ZM144 278Q144
168 189 113L359 628Q333 636 306 636Q225 636 185 577T144 422V278ZM306 64Q387 64 427 119T468 278V422Q468 526 422 584L254 71Q275 64 306 64Z" />
<glyph unicode="&#xd9;" glyph-name="Ugrave" d="M150 700V236Q150 151 189 108T306 64Q383 64 422 107T462 236V700H546V236Q546 114 482 50T306 -14Q194 -14 130 50T66 236V700H150ZM287 892L353 774H281L197 892H287Z" />
<glyph unicode="&#xda;" glyph-name="Uacute" d="M150 700V236Q150 151 189 108T306 64Q383 64 422 107T462 236V700H546V236Q546 114 482 50T306 -14Q194 -14 130 50T66 236V700H150ZM431 892L347 774H275L341 892H431Z" />
<glyph unicode="&#xdb;" glyph-name="Ucircumflex" d="M150 700V236Q150 151 189 108T306 64Q383 64 422 107T462 236V700H546V236Q546 114 482 50T306 -14Q194 -14 130 50T66 236V700H150ZM364 774L312 862H300L248 774H164L244 892H368L448 774H364Z" />
<glyph unicode="&#xdc;" glyph-name="Udieresis" d="M150 700V236Q150 151 189 108T306 64Q383 64 422 107T462 236V700H546V236Q546 114 482 50T306 -14Q194 -14 130 50T66 236V700H150ZM136 848Q136 877 156 897T206 918Q235 918 255 898T276 848Q276 819 256
799T206 778Q177 778 157 798T136 848ZM336 848Q336 877 356 897T406 918Q435 918 455 898T476 848Q476 819 456 799T406 778Q377 778 357 798T336 848Z" />
<glyph unicode="&#xdd;" glyph-name="Yacute" d="M264 246H246L27 700H121L300 318H312L491 700H585L366 246H348V0H264V246ZM426 892L342 774H270L336 892H426Z" />
<glyph unicode="&#xde;" glyph-name="Thorn" d="M169 150V0H85V700H169V562H335Q389 562 429 547T495 505T535 445T549 372V342Q549 304 536 269T495 208T428 166T335 150H169ZM169 228H325Q465 228 465 348V366Q465 419 431 451T325 484H169V228Z" />
<glyph unicode="&#xdf;" glyph-name="germandbls" d="M343 355H368Q406 355 441 343T504 308T547 250T563 170V164Q563 124 550 92T514 36T458 -1T386 -14Q342 -14 310 0T256 36T224 87T212 146L286 158Q286 112 312 85T382 58Q427 58 456 84T485 167Q485 198
474 220T443 256T396 276T338 283H284V430H306Q357 430 386 457T415 532V537Q415 561 406 580T381 613T344 634T299 642Q243 642 210 605T176 502V0H98V424H38V496H98V510Q98 558 113 596T155 660T218 700T299 714Q341 714 376 702T438 666T478 611T493 537V531Q493
492 480 463T446 414T398 382T343 367V355Z" />
<glyph unicode="&#xe0;" glyph-name="agrave" d="M447 84H435Q411 34 369 10T279 -14Q230 -14 188 2T115 51T65 131T47 240V256Q47 317 65 364T114 443T188 493T277 510Q328 510 369 488T435 418H447V496H525V102Q525 72 552 72H577V0H524Q490 0 469 22T447 78V84ZM287
60Q322 60 351 73T402 110T435 167T447 242V254Q447 294 435 327T402 385T351 422T287 436Q252 436 223 423T173 387T139 330T127 256V240Q127 155 171 108T287 60ZM503 688L569 570H497L413 688H503Z" />
<glyph unicode="&#xe1;" glyph-name="aacute" d="M447 84H435Q411 34 369 10T279 -14Q230 -14 188 2T115 51T65 131T47 240V256Q47 317 65 364T114 443T188 493T277 510Q328 510 369 488T435 418H447V496H525V102Q525 72 552 72H577V0H524Q490 0 469 22T447 78V84ZM287
60Q322 60 351 73T402 110T435 167T447 242V254Q447 294 435 327T402 385T351 422T287 436Q252 436 223 423T173 387T139 330T127 256V240Q127 155 171 108T287 60ZM394 688L310 570H238L304 688H394Z" />
<glyph unicode="&#xe2;" glyph-name="acircumflex" d="M447 84H435Q411 34 369 10T279 -14Q230 -14 188 2T115 51T65 131T47 240V256Q47 317 65 364T114 443T188 493T277 510Q328 510 369 488T435 418H447V496H525V102Q525 72 552 72H577V0H524Q490 0 469 22T447
78V84ZM287 60Q322 60 351 73T402 110T435 167T447 242V254Q447 294 435 327T402 385T351 422T287 436Q252 436 223 423T173 387T139 330T127 256V240Q127 155 171 108T287 60ZM592 570L540 658H528L476 570H392L472 688H596L676 570H592Z" />
<glyph unicode="&#xe3;" glyph-name="atilde" d="M447 84H435Q411 34 369 10T279 -14Q230 -14 188 2T115 51T65 131T47 240V256Q47 317 65 364T114 443T188 493T277 510Q328 510 369 488T435 418H447V496H525V102Q525 72 552 72H577V0H524Q490 0 469 22T447 78V84ZM287
60Q322 60 351 73T402 110T435 167T447 242V254Q447 294 435 327T402 385T351 422T287 436Q252 436 223 423T173 387T139 330T127 256V240Q127 155 171 108T287 60ZM589 642Q594 632 599 627T613 622Q623 622 632 632L680 687L729 645L688 596Q674 579 655 567T610
554Q579 554 563 568T529 613Q522 625 518 630T505 635Q494 635 483 623L437 570L388 612L429 661Q443 678 462 690T508 703Q537 703 554 689T589 642Z" />
<glyph unicode="&#xe4;" glyph-name="adieresis" d="M447 84H435Q411 34 369 10T279 -14Q230 -14 188 2T115 51T65 131T47 240V256Q47 317 65 364T114 443T188 493T277 510Q328 510 369 488T435 418H447V496H525V102Q525 72 552 72H577V0H524Q490 0 469 22T447
78V84ZM287 60Q322 60 351 73T402 110T435 167T447 242V254Q447 294 435 327T402 385T351 422T287 436Q252 436 223 423T173 387T139 330T127 256V240Q127 155 171 108T287 60ZM369 644Q369 673 389 693T439 714Q468 714 488 694T509 644Q509 615 489 595T439 574Q410
574 390 594T369 644ZM569 644Q569 673 589 693T639 714Q668 714 688 694T709 644Q709 615 689 595T639 574Q610 574 590 594T569 644Z" />
<glyph unicode="&#xe5;" glyph-name="aring" d="M447 84H435Q411 34 369 10T279 -14Q230 -14 188 2T115 51T65 131T47 240V256Q47 317 65 364T114 443T188 493T277 510Q328 510 369 488T435 418H447V496H525V102Q525 72 552 72H577V0H524Q490 0 469 22T447 78V84ZM287
60Q322 60 351 73T402 110T435 167T447 242V254Q447 294 435 327T402 385T351 422T287 436Q252 436 223 423T173 387T139 330T127 256V240Q127 155 171 108T287 60ZM432 672Q432 715 461 744T534 774Q577 774 606 745T636 672Q636 629 607 600T534 570Q491 570
462 599T432 672ZM492 672Q492 654 504 642T534 630Q552 630 564 642T576 672Q576 690 564 702T534 714Q516 714 504 702T492 672Z" />
<glyph unicode="&#xe6;" glyph-name="ae" d="M306 510Q367 510 411 488T484 432T526 360T540 288V224H341V62Q394 70 421 97T460 162L534 142Q513 73 457 30T306 -14H246Q205 -14 173 -3T118 29T84 76T72 134V146Q72 181 85 209T122 256T178 286T248 296H263V437Q219
432 193 405T158 330L84 348Q90 381 105 410T145 461T204 497T283 510H306ZM149 140Q149 103 176 81T253 58H263V224H257Q206 224 178 204T149 140ZM462 296Q459 351 424 386T341 432V296H462Z" />
<glyph unicode="&#xe7;" glyph-name="ccedilla" d="M551 176Q543 135 524 100T474 40T404 0T315 -14H307L295 -68H301Q314 -36 355 -36Q390 -36 410 -61T431 -121Q431 -163 404 -187T338 -212Q295 -212 272 -192T241 -142L289 -124Q292 -139 303 -151T337 -164Q352
-164 364 -154T377 -122Q377 -104 367 -94T342 -84Q324 -84 317 -98H241V-92L259 -9Q217 -1 181 19T117 70T75 144T59 240V252Q59 312 79 360T135 441T216 492T315 510Q362 510 402 496T472 457T522 396T549 320L471 302Q468 328 457 352T426 395T378 425T313 436Q277
436 246 423T190 385T153 326T139 252V240Q139 198 152 165T190 108T246 73T315 60Q352 60 379 71T426 101T457 144T473 194L551 176Z" />
<glyph unicode="&#xe8;" glyph-name="egrave" d="M144 224Q147 150 190 105T310 60Q345 60 371 68T415 90T445 122T464 162L538 142Q517 73 461 30T308 -14Q255 -14 211 4T134 57T84 138T66 242V266Q66 318 84 363T136 440T213 491T310 510Q371 510 415 488T488
432T530 360T544 288V224H144ZM310 436Q277 436 249 426T199 396T164 352T146 296H466Q464 328 451 354T416 398T367 426T310 436ZM536 688L602 570H530L446 688H536Z" />
<glyph unicode="&#xe9;" glyph-name="eacute" d="M144 224Q147 150 190 105T310 60Q345 60 371 68T415 90T445 122T464 162L538 142Q517 73 461 30T308 -14Q255 -14 211 4T134 57T84 138T66 242V266Q66 318 84 363T136 440T213 491T310 510Q371 510 415 488T488
432T530 360T544 288V224H144ZM310 436Q277 436 249 426T199 396T164 352T146 296H466Q464 328 451 354T416 398T367 426T310 436ZM429 688L345 570H273L339 688H429Z" />
<glyph unicode="&#xea;" glyph-name="ecircumflex" d="M144 224Q147 150 190 105T310 60Q345 60 371 68T415 90T445 122T464 162L538 142Q517 73 461 30T308 -14Q255 -14 211 4T134 57T84 138T66 242V266Q66 318 84 363T136 440T213 491T310 510Q371 510 415 488T488
432T530 360T544 288V224H144ZM310 436Q277 436 249 426T199 396T164 352T146 296H466Q464 328 451 354T416 398T367 426T310 436ZM365 570L313 658H301L249 570H165L245 688H369L449 570H365Z" />
<glyph unicode="&#xeb;" glyph-name="edieresis" d="M144 224Q147 150 190 105T310 60Q345 60 371 68T415 90T445 122T464 162L538 142Q517 73 461 30T308 -14Q255 -14 211 4T134 57T84 138T66 242V266Q66 318 84 363T136 440T213 491T310 510Q371 510 415 488T488
432T530 360T544 288V224H144ZM310 436Q277 436 249 426T199 396T164 352T146 296H466Q464 328 451 354T416 398T367 426T310 436ZM137 644Q137 673 157 693T207 714Q236 714 256 694T277 644Q277 615 257 595T207 574Q178 574 158 594T137 644ZM337 644Q337 673
357 693T407 714Q436 714 456 694T477 644Q477 615 457 595T407 574Q378 574 358 594T337 644Z" />
<glyph unicode="&#xec;" glyph-name="igrave" d="M99 72H273V424H117V496H351V72H513V0H99V72ZM537 688L603 570H531L447 688H537Z" />
<glyph unicode="&#xed;" glyph-name="iacute" d="M99 72H273V424H117V496H351V72H513V0H99V72ZM434 688L350 570H278L344 688H434Z" />
<glyph unicode="&#xee;" glyph-name="icircumflex" d="M99 72H273V424H117V496H351V72H513V0H99V72ZM370 570L318 658H306L254 570H170L250 688H374L454 570H370Z" />
<glyph unicode="&#xef;" glyph-name="idieresis" d="M99 72H273V424H117V496H351V72H513V0H99V72ZM142 644Q142 673 162 693T212 714Q241 714 261 694T282 644Q282 615 262 595T212 574Q183 574 163 594T142 644ZM342 644Q342 673 362 693T412 714Q441 714 461
694T482 644Q482 615 462 595T412 574Q383 574 363 594T342 644Z" />
<glyph unicode="&#xf0;" glyph-name="eth" d="M265 616Q215 634 160 640L178 714Q240 705 298 685L316 722L379 693L361 656Q412 628 449 587T509 496T544 389T555 271Q555 199 536 146T482 57T403 4T306 -14Q256 -14 211 3T132 52T78 132T57 242V254Q57 315 77
362T130 443T206 493T294 510Q345 510 381 490T436 440H448Q434 489 403 525T329 587L310 547L246 576L265 616ZM306 60Q342 60 372 73T426 110T462 171T475 254Q475 294 462 327T426 385T372 422T306 436Q271 436 240 423T186 385T150 328T137 254V242Q137 200
150 167T186 109T239 73T306 60Z" />
<glyph unicode="&#xf1;" glyph-name="ntilde" d="M165 0H87V496H165V412H177Q223 510 337 510Q423 510 474 457T525 296V0H447V280Q447 358 412 397T317 436Q246 436 206 388T165 258V0ZM379 639Q384 629 389 624T403 619Q413 619 422 629L470 684L519 642L478
593Q464 576 445 564T400 551Q369 551 353 565T319 610Q312 622 308 627T295 632Q284 632 273 620L227 567L178 609L219 658Q233 675 252 687T298 700Q327 700 344 686T379 639Z" />
<glyph unicode="&#xf2;" glyph-name="ograve" d="M555 242Q555 180 535 133T480 53T401 3T306 -14Q256 -14 211 3T132 52T78 132T57 242V254Q57 315 77 362T132 443T212 493T306 510Q355 510 400 493T479 443T534 363T555 254V242ZM306 60Q342 60 372 72T426 109T462
166T475 242V254Q475 294 462 327T426 385T372 422T306 436Q271 436 240 423T186 385T150 328T137 254V242Q137 200 150 167T186 109T239 73T306 60ZM535 688L601 570H529L445 688H535Z" />
<glyph unicode="&#xf3;" glyph-name="oacute" d="M555 242Q555 180 535 133T480 53T401 3T306 -14Q256 -14 211 3T132 52T78 132T57 242V254Q57 315 77 362T132 443T212 493T306 510Q355 510 400 493T479 443T534 363T555 254V242ZM306 60Q342 60 372 72T426 109T462
166T475 242V254Q475 294 462 327T426 385T372 422T306 436Q271 436 240 423T186 385T150 328T137 254V242Q137 200 150 167T186 109T239 73T306 60ZM428 688L344 570H272L338 688H428Z" />
<glyph unicode="&#xf4;" glyph-name="ocircumflex" d="M555 242Q555 180 535 133T480 53T401 3T306 -14Q256 -14 211 3T132 52T78 132T57 242V254Q57 315 77 362T132 443T212 493T306 510Q355 510 400 493T479 443T534 363T555 254V242ZM306 60Q342 60 372 72T426
109T462 166T475 242V254Q475 294 462 327T426 385T372 422T306 436Q271 436 240 423T186 385T150 328T137 254V242Q137 200 150 167T186 109T239 73T306 60ZM364 570L312 658H300L248 570H164L244 688H368L448 570H364Z" />
<glyph unicode="&#xf5;" glyph-name="otilde" d="M555 242Q555 180 535 133T480 53T401 3T306 -14Q256 -14 211 3T132 52T78 132T57 242V254Q57 315 77 362T132 443T212 493T306 510Q355 510 400 493T479 443T534 363T555 254V242ZM306 60Q342 60 372 72T426 109T462
166T475 242V254Q475 294 462 327T426 385T372 422T306 436Q271 436 240 423T186 385T150 328T137 254V242Q137 200 150 167T186 109T239 73T306 60ZM337 639Q342 629 347 624T361 619Q371 619 380 629L428 684L477 642L436 593Q422 576 403 564T358 551Q327 551
311 565T277 610Q270 622 266 627T253 632Q242 632 231 620L185 567L136 609L177 658Q191 675 210 687T256 700Q285 700 302 686T337 639Z" />
<glyph unicode="&#xf6;" glyph-name="odieresis" d="M555 242Q555 180 535 133T480 53T401 3T306 -14Q256 -14 211 3T132 52T78 132T57 242V254Q57 315 77 362T132 443T212 493T306 510Q355 510 400 493T479 443T534 363T555 254V242ZM306 60Q342 60 372 72T426
109T462 166T475 242V254Q475 294 462 327T426 385T372 422T306 436Q271 436 240 423T186 385T150 328T137 254V242Q137 200 150 167T186 109T239 73T306 60ZM136 644Q136 673 156 693T206 714Q235 714 255 694T276 644Q276 615 256 595T206 574Q177 574 157 594T136
644ZM336 644Q336 673 356 693T406 714Q435 714 455 694T476 644Q476 615 456 595T406 574Q377 574 357 594T336 644Z" />
<glyph unicode="&#xf7;" glyph-name="divide" d="M97 386H515V314H97V386ZM236 184Q236 213 256 233T306 254Q335 254 355 234T376 184Q376 155 356 135T306 114Q277 114 257 134T236 184ZM236 516Q236 545 256 565T306 586Q335 586 355 566T376 516Q376 487 356
467T306 446Q277 446 257 466T236 516Z" />
<glyph unicode="&#xf8;" glyph-name="oslash" d="M555 242Q555 180 535 133T480 53T401 3T306 -14Q280 -14 261 -10L242 -68L171 -46L190 12Q131 41 94 99T57 242V254Q57 315 77 362T132 443T212 493T306 510Q317 510 329 509T352 506L369 558L439 536L422 483Q480
454 517 396T555 254V242ZM137 242Q137 188 158 149T214 86L328 435Q323 436 317 436T306 436Q271 436 240 423T186 385T150 328T137 254V242ZM306 60Q342 60 372 72T426 109T462 166T475 242V254Q475 306 454 346T397 409L284 61Q289 60 294 60T306 60Z" />
<glyph unicode="&#xf9;" glyph-name="ugrave" d="M441 496H519V0H441V90H429Q405 42 366 14T267 -14Q226 -14 192 -1T133 40T95 107T81 200V496H159V210Q159 132 191 96T289 60Q360 60 400 108T441 238V496ZM533 688L599 570H527L443 688H533Z" />
<glyph unicode="&#xfa;" glyph-name="uacute" d="M441 496H519V0H441V90H429Q405 42 366 14T267 -14Q226 -14 192 -1T133 40T95 107T81 200V496H159V210Q159 132 191 96T289 60Q360 60 400 108T441 238V496ZM423 688L339 570H267L333 688H423Z" />
<glyph unicode="&#xfb;" glyph-name="ucircumflex" d="M441 496H519V0H441V90H429Q405 42 366 14T267 -14Q226 -14 192 -1T133 40T95 107T81 200V496H159V210Q159 132 191 96T289 60Q360 60 400 108T441 238V496ZM615 570L563 658H551L499 570H415L495 688H619L699
570H615Z" />
<glyph unicode="&#xfc;" glyph-name="udieresis" d="M441 496H519V0H441V90H429Q405 42 366 14T267 -14Q226 -14 192 -1T133 40T95 107T81 200V496H159V210Q159 132 191 96T289 60Q360 60 400 108T441 238V496ZM470 644Q470 673 450 693T400 714Q371 714 351 694T330
644Q330 615 350 595T400 574Q429 574 449 594T470 644ZM270 644Q270 673 250 693T200 714Q171 714 151 694T130 644Q130 615 150 595T200 574Q229 574 249 594T270 644Z" />
<glyph unicode="&#xfd;" glyph-name="yacute" d="M447 90H435Q411 42 372 14T273 -14Q232 -14 198 -1T139 40T101 107T87 200V496H165V210Q165 132 197 96T295 60Q366 60 406 108T447 238V496H525V-122Q525 -156 504 -178T448 -200H165V-128H420Q447 -128 447
-98V90ZM426 688L342 570H270L336 688H426Z" />
<glyph unicode="&#xfe;" glyph-name="thorn" d="M147 -200H69V700H147V418H159Q185 463 231 486T331 510Q377 510 418 493T490 444T540 365T559 258V238Q559 177 541 130T492 51T418 3T329 -14Q305 -14 280 -9T233 8T191 36T159 76H147V-200ZM313 60Q349 60 379
72T431 108T466 164T479 238V258Q479 298 467 330T432 386T379 423T313 436Q278 436 248 423T196 385T160 328T147 254V242Q147 201 160 168T195 110T248 73T313 60Z" />
<glyph unicode="&#xff;" glyph-name="ydieresis" d="M447 90H435Q411 42 372 14T273 -14Q232 -14 198 -1T139 40T101 107T87 200V496H165V210Q165 132 197 96T295 60Q366 60 406 108T447 238V496H525V-122Q525 -156 504 -178T448 -200H165V-128H420Q447 -128 447
-98V90ZM136 644Q136 673 156 693T206 714Q235 714 255 694T276 644Q276 615 256 595T206 574Q177 574 157 594T136 644ZM336 644Q336 673 356 693T406 714Q435 714 455 694T476 644Q476 615 456 595T406 574Q377 574 357 594T336 644Z" />
<glyph unicode="&#x2013;" glyph-name="endash" d="M73 296H539V224H73V296Z" />
<glyph unicode="&#x2014;" glyph-name="emdash" d="M12 296H600V224H12V296Z" />
<glyph unicode="&#x2018;" glyph-name="quoteleft" d="M376 538Q376 509 356 489T306 468Q277 468 257 488T236 538V636Q236 670 257 692T313 714H364V660H317Q290 660 290 630V605Q297 608 307 608Q335 608 355 588T376 538Z" />
<glyph unicode="&#x2019;" glyph-name="quoteright" d="M236 644Q236 673 256 693T306 714Q335 714 355 694T376 644V546Q376 512 355 490T299 468H248V522H295Q322 522 322 552V577Q314 574 305 574Q277 574 257 594T236 644Z" />
<glyph unicode="&#x201a;" glyph-name="quotesinglbase" d="M236 70Q236 99 256 119T306 140Q335 140 355 120T376 70V-28Q376 -62 355 -84T299 -106H248V-52H295Q322 -52 322 -22V3Q314 0 305 0Q277 0 257 20T236 70Z" />
<glyph unicode="&#x201c;" glyph-name="quotedblleft" d="M285 538Q285 509 265 489T215 468Q186 468 166 488T145 538V636Q145 670 166 692T222 714H273V660H226Q199 660 199 630V605Q206 608 216 608Q244 608 264 588T285 538ZM467 538Q467 509 447 489T397
468Q368 468 348 488T327 538V636Q327 670 348 692T404 714H455V660H408Q381 660 381 630V605Q388 608 398 608Q426 608 446 588T467 538Z" />
<glyph unicode="&#x201d;" glyph-name="quotedblright" d="M327 644Q327 673 347 693T397 714Q426 714 446 694T467 644V546Q467 512 446 490T390 468H339V522H386Q413 522 413 552V577Q405 574 396 574Q368 574 348 594T327 644ZM145 644Q145 673 165 693T215
714Q244 714 264 694T285 644V546Q285 512 264 490T208 468H157V522H204Q231 522 231 552V577Q223 574 214 574Q186 574 166 594T145 644Z" />
<glyph unicode="&#x201e;" glyph-name="quotedblbase" d="M327 70Q327 99 347 119T397 140Q426 140 446 120T467 70V-28Q467 -62 446 -84T390 -106H339V-52H386Q413 -52 413 -22V3Q405 0 396 0Q368 0 348 20T327 70ZM145 70Q145 99 165 119T215 140Q244 140 264
120T285 70V-28Q285 -62 264 -84T208 -106H157V-52H204Q231 -52 231 -22V3Q223 0 214 0Q186 0 166 20T145 70Z" />
<glyph unicode="&#x2022;" glyph-name="bullet" d="M188 350Q188 374 197 395T223 433T260 458T306 468Q330 468 351 459T389 433T414 396T424 350Q424 326 415 305T389 267T352 242T306 232Q282 232 261 241T223 267T198 304T188 350Z" />
<glyph unicode="&#x2039;" glyph-name="guilsinglleft" d="M420 12L186 170V326L420 484H426V396L216 254V242L426 100V12H420Z" />
<glyph unicode="&#x203a;" glyph-name="guilsinglright" d="M186 12V100L396 242V254L186 396V484H192L426 326V170L192 12H186Z" />
</font>
</defs>
</svg>
